Now playing on dirty.radio: Loading...

  Dirty Forums > underworld.

Post Reply
 
Thread Tools Display Modes
  #1  
Old 12-18-2005, 04:23 PM
verbal
mouseman
 
Join Date: Oct 2005
Posts: 159
Perfected(?) Cue Sheets For The LBT and PFE?
Anyone have the "final" cue sheets for the two releases?
  #2  
Old 12-19-2005, 05:53 AM
stimpee
Administrator
 
Join Date: Jun 2005
Location: Netherlands
Posts: 3,747
Re: Perfected(?) Cue Sheets For The LBT and PFE?
http://www.dirty.org/forums/showthread.php?t=1990
__________________
UW0764 || Professor: "Underworld have never failed to disappoint me" || Yannick changed my avatar picture.
  #3  
Old 12-19-2005, 10:18 AM
Jan
vision
 
Join Date: Nov 2005
Location: Germany
Posts: 607
Re: Perfected(?) Cue Sheets For The LBT and PFE?
I've made some cues that are IMO better than the ones floating around here. Mine are not cut at seconds but at frames, what makes them more accurate:

PERFORMER "Underworld"
TITLE "Lovely Broken Thing"
FILE "audio.mp3" WAVE
TRACK 01 AUDIO
TITLE "JAL To Tokyo"
PERFORMER "Underworld"
INDEX 01 00:00:00
TRACK 02 AUDIO
TITLE "Billy Goat"
PERFORMER "Underworld"
INDEX 01 05:37:01
TRACK 03 AUDIO
TITLE "Peggy Sussed"
PERFORMER "Underworld"
INDEX 01 11:39:53
TRACK 04 AUDIO
TITLE "Dub Shepherd"
PERFORMER "Underworld"
INDEX 01 14:00:25
TRACK 05 AUDIO
TITLE "Lenny Penne"
PERFORMER "Underworld"
INDEX 01 16:36:59
TRACK 06 AUDIO
TITLE "Monkey Wink"
PERFORMER "Underworld"
INDEX 01 23:43:56
TRACK 07 AUDIO
TITLE "Witness"
PERFORMER "Underworld"
INDEX 01 26:44:24

and...

PERFORMER "Underworld"
TITLE "Pizza for Eggs"
FILE "audio.mp3" WAVE
TRACK 01 AUDIO
TITLE "Food a Ready"
PERFORMER "Underworld"
INDEX 01 00:00:00
TRACK 02 AUDIO
TITLE "Back in the Fears"
PERFORMER "Underworld"
INDEX 01 07:06:33
TRACK 03 AUDIO
TITLE "Vanilla Monkey"
PERFORMER "Underworld"
INDEX 01 09:14:41
TRACK 04 AUDIO
TITLE "Flatz"
PERFORMER "Underworld"
INDEX 01 13:41:62
TRACK 05 AUDIO
TITLE "Ancient Phat Farm Coat"
PERFORMER "Underworld"
INDEX 01 14:16:61
TRACK 06 AUDIO
TITLE "Play Pig"
PERFORMER "Underworld"
INDEX 01 22:32:20
Post Reply

Thread Tools
Display Modes

Posting Rules
You may not post new threads
You may not post replies
You may not post attachments
You may not edit your posts

BB code is On
Smilies are On
[IMG] code is On
HTML code is Off

Forum Jump


All times are GMT -7. The time now is 08:24 AM.


Powered by vBulletin®
Copyright ©2000 - 2020, vBulletin Solutions, Inc.