Now playing on dirty.radio: Loading...

  Dirty Forums > underworld.

Post Reply
 
Thread Tools Display Modes
  #381  
Old 11-15-2019, 08:42 PM
TheBang
Admaxistrator
 
Join Date: Jan 2006
Location: Sunny Hawaii
Posts: 4,448
Re: DRIFT Series 1 - New album, Nov 1, 2019
In the box set tracklisting, how did Doscientos get spelled?

Also, on the Blu-ray, can anyone find out what format the audio is in? I'm hoping for some kind of lossless audio, rather than something lossy like Dolby Digital. Also, how long is the Doris video? The YouTube version had that weird cut, and I'm hoping they were able to fix that and include the whole thing on the Blu-ray.
  #382  
Old 11-16-2019, 05:23 AM
deckarep
river
 
Join Date: Jan 2015
Posts: 1
Re: DRIFT Series 1 - New album, Nov 1, 2019
Here is the info from the blu-ray. Got my box yesterday after some fxxx-up at DHL.

- Deck

Disc Label: UNDERWORLD DRIFT
Disc Size: 37,874,039,763 bytes
Protection: AACS
BDInfo: 0.7.5.5

Notes:

BDINFO HOME:
Cinema Squid (old)
http://www.cinemasquid.com/blu-ray/tools/bdinfo
UniqProject GitHub (new)
https://github.com/UniqProject/BDInfo

INCLUDES FORUMS REPORT FOR:
AVS Forum Blu-ray Audio and Video Specifications Thread
http://www.avsforum.com/avs-vb/showthread.php?t=1155731


********************
PLAYLIST: 00001.MPLS
********************

<--- BEGIN FORUMS PASTE --->
Total Video
Title Codec Length Movie Size Disc Size Bitrate Bitrate Main Audio Track Secondary Audio Track
----- ------ ------- -------------- -------------- ------- ------- ------------------ ---------------------
00001.MPLS AVC 4:05:56 37,836,540,096 37,874,039,763 20.51 17.82 LPCM 2.0 1536Kbps (48kHz/16-bit)


[code]

DISC INFO:

Disc Label: UNDERWORLD DRIFT
Disc Size: 37,874,039,763 bytes
Protection: AACS
BDInfo: 0.7.5.5

PLAYLIST REPORT:

Name: 00001.MPLS
Length: 4:05:56.574 (h:m:s.ms)
Size: 37,836,540,096 bytes
Total Bitrate: 20.51 Mbps

VIDEO:

Codec Bitrate Description
----- ------- -----------
MPEG-4 AVC Video 17820 kbps 1080p / 23.976 fps / 16:9 / High Profile 4.1

AUDIO:

Codec Language Bitrate Description
----- -------- ------- -----------
LPCM Audio English 1536 kbps 2.0 / 48 kHz / 1536 kbps / 16-bit

FILES:

Name Time In Length Size Total Bitrate
---- ------- ------ ---- -------------
00000.M2TS 0:00:00.000 0:01:53.655 292,464,192 20,579
00001.M2TS 0:01:53.655 0:03:59.572 619,933,248 20,698
00002.M2TS 0:05:53.227 0:05:30.246 854,879,808 20,706
00003.M2TS 0:11:23.474 0:03:07.145 484,175,232 20,693
00004.M2TS 0:14:30.619 0:03:08.229 481,607,040 20,464
00005.M2TS 0:17:38.849 0:05:07.724 794,183,232 20,644
00006.M2TS 0:22:46.573 0:09:33.990 1,485,653,568 20,705
00007.M2TS 0:32:20.563 0:04:13.836 658,900,800 20,763
00008.M2TS 0:36:34.400 0:15:13.996 2,368,693,824 20,732
00009.M2TS 0:51:48.396 0:04:23.263 681,121,344 20,695
00010.M2TS 0:56:11.659 0:06:23.591 988,917,312 20,622
00011.M2TS 1:02:35.251 0:47:21.421 7,344,670,272 20,679
00012.M2TS 1:49:56.673 0:11:16.384 1,748,512,320 20,679
00013.M2TS 2:01:13.057 0:10:22.538 1,610,862,144 20,699
00014.M2TS 2:11:35.595 0:06:09.160 958,307,904 20,765
00015.M2TS 2:17:44.756 0:12:14.650 1,900,717,632 20,697
00016.M2TS 2:29:59.406 0:05:47.472 901,174,848 20,746
00017.M2TS 2:35:46.879 0:05:54.479 597,986,880 13,494
00018.M2TS 2:41:41.358 0:08:42.480 1,346,092,608 20,609
00019.M2TS 2:50:23.838 0:04:23.429 679,837,248 20,642
00020.M2TS 2:54:47.268 0:03:25.705 532,024,896 20,687
00021.M2TS 2:58:12.973 0:08:15.870 1,283,356,224 20,703
00022.M2TS 3:06:28.844 0:07:06.467 1,104,424,512 20,716
00023.M2TS 3:13:35.311 0:10:14.113 1,588,786,752 20,696
00024.M2TS 3:23:49.425 0:02:55.592 454,512,192 20,703
00025.M2TS 3:26:45.017 0:06:08.576 950,350,848 20,625
00026.M2TS 3:32:53.593 0:13:35.314 2,107,616,832 20,679
00027.M2TS 3:46:28.908 0:09:28.776 1,471,350,336 20,693
00028.M2TS 3:55:57.684 0:03:44.724 581,011,008 20,680
00029.M2TS 3:59:42.409 0:06:13.164 964,390,464 20,673
00035.M2TS 4:05:55.573 0:00:01.000 24,576 196
  #383  
Old 11-16-2019, 06:16 AM
Dirty0900
Only 50 a show,book now.
 
Join Date: Jun 2005
Location: Newcastle upon the Tyne,UK
Posts: 2,421
Re: DRIFT Series 1 - New album, Nov 1, 2019
I’m not getting my box till Monday, is there a download code for all the tracks ?
__________________
What's a signature?
  #384  
Old 11-16-2019, 08:07 AM
dubman
BigColor&Excited4SoupMan
 
Join Date: Dec 2008
Posts: 2,508
Re: DRIFT Series 1 - New album, Nov 1, 2019
Quote:
Originally Posted by TheBang View Post
In the box set tracklisting, how did Doscientos get spelled?

i suddenly thought of that before leaving the house today and checked. it's "Doscientos"


which, after biking around to it this morning is really quite good. better than the "for fans only" jam i thought it was. shorten that to about three minutes and it's one of those album interludes they like to do.
  #385  
Old 11-16-2019, 08:08 AM
dubman
BigColor&Excited4SoupMan
 
Join Date: Dec 2008
Posts: 2,508
Re: DRIFT Series 1 - New album, Nov 1, 2019
Quote:
Originally Posted by Dirty0900 View Post
I’m not getting my box till Monday, is there a download code for all the tracks ?

there's A code. no one knows what it's for yet. it could be the whole kit and some bonus stuff. the description takes care to mention that it includes material done after the box set was sent to print
  #386  
Old 11-16-2019, 10:27 AM
Dino3D
pants
 
Join Date: May 2008
Posts: 261
Re: DRIFT Series 1 - New album, Nov 1, 2019
I don't know why the UW store still states that the CD comes with 16 page book, when it has got only a 8 page foldout leaflet.
__________________
I feel dazed, I feel day's orange glow
  #387  
Old 11-16-2019, 01:10 PM
whatmakesustick
mouseman
 
Join Date: Apr 2007
Posts: 191
Re: DRIFT Series 1 - New album, Nov 1, 2019
I am little late to the party with comments. I have been listening to the sampler this week and looking forward to listening the eps next week now the box has arrived.

I’m really into the sampler as a stand alone record. Had we not known anything about the drift series, I would have said this was a return to techno form and it remind me a lot of BF. Track selection is great for a flowing album although I would have made space for another silent way but I guess we will all have our haves and preferred tracks.

I think it would have been good if the Japan version had been more readily available as a sampler. With disc 1 being the straight up class UW and disc 2 showing off the more experimental side of UW.
  #388  
Old 11-16-2019, 03:25 PM
TheBang
Admaxistrator
 
Join Date: Jan 2006
Location: Sunny Hawaii
Posts: 4,448
Re: DRIFT Series 1 - New album, Nov 1, 2019
Quote:
Originally Posted by deckarep View Post
Here is the info from the blu-ray.
Nice, thank you, kind lurker. Exactly the spec readout I was looking for.

Quote:
Originally Posted by deckarep View Post
Disc Size: 37,874,039,763 bytes
I am a bit shocked that with over 4 hours of video, the disc was authored to only 75% capacity.

Quote:
Originally Posted by deckarep View Post
AUDIO:
Codec Language Bitrate Description
----- -------- ------- -----------
LPCM Audio English 1536 kbps 2.0 / 48 kHz / 1536 kbps / 16-bit
That is good news. Now I can upgrade some of the video only edits in my iTunes Library that were previously just low bitrate AAC rips from YouTube.

Also, based on the chapter runtimes, it looks like each film is identical to what was posted on YouTube (including Doris). And the one film missing from the Blu-ray is Soniamode (pre-Aditya).

Quote:
Originally Posted by dubman View Post
i suddenly thought of that before leaving the house today and checked. it's "Doscientos"
Thanks. You got your box already? How did yours ship? Mine was sent by UPS Economy DDP, and it hasn't even been scanned at the carrier yet.

Quote:
Originally Posted by Dino3D View Post
I don't know why the UW store still states that the CD comes with 16 page book, when it has got only a 8 page foldout leaflet.
Hm, I'll point that out to them.
  #389  
Old 11-16-2019, 03:47 PM
holden
collateral damage
 
Join Date: Jun 2005
Location: foothills of the front range
Posts: 2,824
Send a message via MSN to holden
Re: DRIFT Series 1 - New album, Nov 1, 2019
My boxset was scanned in the UK. And scheduled for US delivery on the 27th.
Thankfully, enjoying the tunes on streaming service, but I'm old school and appreciate hearing each episode distinctively,

PS.. my dad recently passed, and was a music enthusiast. He appreciated all the Underworld I played/showed him. I'll miss him always, and am thankful that he loved the music I love.
__________________
Believe in Billy Records
  #390  
Old 11-17-2019, 02:18 AM
Dino3D
pants
 
Join Date: May 2008
Posts: 261
Re: DRIFT Series 1 - New album, Nov 1, 2019
I ordered my box (and the yellow vinyl) through my local indie shop, and the owner told me it will arrive at the end of november, so I can't enjoy them soon. :/
__________________
I feel dazed, I feel day's orange glow
Post Reply

Thread Tools
Display Modes

Posting Rules
You may not post new threads
You may not post replies
You may not post attachments
You may not edit your posts

BB code is On
Smilies are On
[IMG] code is On
HTML code is Off

Forum Jump


All times are GMT -7. The time now is 06:15 AM.


Powered by vBulletin®
Copyright ©2000 - 2020, vBulletin Solutions, Inc.