Now playing on dirty.radio: Loading...

  Dirty Forums > moments.

Post Reply
 
Thread Tools Display Modes
  #71  
Old 08-14-2010, 11:46 AM
BrotherLovesDub
barking dog
 
Join Date: Aug 2005
Location: Romford
Posts: 2,120
Re: 2010-08-07 Radio 1 Cream Ibiza @ Privilege, Ibiza, Spain
Quote:
Originally Posted by Flywaver View Post
My heart is breaking...... This is the worst time to be a 1500mile drive from the UK.. Anyone here willing to share this gig? , as no doubt the links will expire before Tuesday please let me know. I dont know whats worse. The drive through Poland and flooring it on Germany's autobahns or the phone companies disgraceful internet charge usage abroad....
Still im chuffed im not at the mercy of Ryan Air and its over 30C... How many days of rain now in the UK???
Really want this gig...... Also i heard Arcade Fire have released another great album! Arggggghhhhhh
WTF are you talking about? The gig has been posted 3 times already. All links are active.


http://hotfile.com/dl/60655018/f9a8a...1KING.rar.html

there it is for the 4th time.
__________________
triple-glazed and pebble-dashed
  #72  
Old 08-14-2010, 04:34 PM
sunflowereye
mouseman
 
Join Date: Oct 2005
Location: Hull, GA
Posts: 129
Re: 2010-08-07 Radio 1 Cream Ibiza @ Privilege, Ibiza, Spain
Many thanks BLD for the mp3. The Ibiza gig sounds awesome! Loving "Downpipe" & "Always Loved A Film." Stellar "Rez/Cowgirl." Somebody mentioned UW should retire NUXX. Pretty sure that won't happen. Besides me & the wife love NUXX . I'd rather see TMO or KoS exit the set list.
  #73  
Old 08-14-2010, 04:55 PM
Champiness
Once again the superstar
 
Join Date: Dec 2008
Posts: 549
Re: 2010-08-07 Radio 1 Cream Ibiza @ Privilege, Ibiza, Spain
Yeah; Two Months Off is a great studio track but it's become really stale live. Same thing over and over and over. And they don't even have the drive to improvise on it like they do with NUXX. It just seems to be taking up ten precious minutes of show time to me.
__________________
"What's 'your' good news today?"
  #74  
Old 08-14-2010, 10:34 PM
Flywaver
vision
 
Join Date: Sep 2005
Location: The Fens and Radsviliskis, Lithuania
Posts: 583
Re: 2010-08-07 Radio 1 Cream Ibiza @ Privilege, Ibiza, Spain
Quote:
Originally Posted by BrotherLovesDub View Post
WTF are you talking about? The gig has been posted 3 times already. All links are active.


http://hotfile.com/dl/60655018/f9a8a...1KING.rar.html

there it is for the 4th time.
LOL yeah it sounds like ive lost the plot. But this PC im using has more viruses than a mosquito... Im abroad. Just hope the links stay for longer period of time. Cheers BLD
__________________
DARKTRAINDRIVER...........
  #75  
Old 08-15-2010, 12:51 PM
froopy seal
amazinglytogetherpinniped
 
Join Date: Sep 2005
Location: Cheezeburg
Posts: 917
Send a message via ICQ to froopy seal
Re: 2010-08-07 Radio 1 Cream Ibiza @ Privilege, Ibiza, Spain
Quote:
Originally Posted by BrotherLovesDub View Post
WTF are you talking about? The gig has been posted 3 times already. All links are active.


http://hotfile.com/dl/60655018/f9a8a62/Underworld-Essential_Mix_At_Privilege_(Ibiza)-DAB-08-08-2010-1KING.rar.html

there it is for the 4th time.
Yeah, right, Mr. Smartypants*, but I can't, like, HEAR anything when I click that link...





Thanks for the (first) link, BLD.

*: Haha, I looked that one up. Do people (or, well, Brits) actually say "smartypants" instead of wise-ass?!?
  #76  
Old 08-16-2010, 05:17 AM
jose m
pants
 
Join Date: Jul 2005
Location: london
Posts: 436
Re: 2010-08-07 Radio 1 Cream Ibiza @ Privilege, Ibiza, Spain
Quote:
Originally Posted by Champiness View Post
Yeah; Two Months Off is a great studio track but it's become really stale live. Same thing over and over and over. And they don't even have the drive to improvise on it like they do with NUXX. It just seems to be taking up ten precious minutes of show time to me.

wont happen.
its one of the tracks that the younger elements of the audience know (it was underworld last proper pop chart record) so for that reason alone its gonna stay imo.

saw this on facebook....i think these guys like tmo

  #77  
Old 08-16-2010, 08:16 AM
jose m
pants
 
Join Date: Jul 2005
Location: london
Posts: 436
Re: 2010-08-07 Radio 1 Cream Ibiza @ Privilege, Ibiza, Spain
*: Haha, I looked that one up. Do people (or, well, Brits) actually say "smartypants" instead of wise-ass?!?[/QUOTE]

they did in enid blyton books in the 1950's
  #78  
Old 08-17-2010, 03:40 PM
ultradave
the doorway boy...
 
Join Date: Jul 2005
Location: Los Angeles, CA
Posts: 674
Re: underworld live/today's essential mix
Quote:
Originally Posted by TheBang View Post
OK, here you go... a direct rip of the HE-AAC stream...
and I thank you.
__________________
be bold. be beautiful. free...
uw-0362
  #79  
Old 08-19-2010, 03:03 PM
Rog
the fuckest upest
 
Join Date: Jun 2005
Location: dustbin of europe
Posts: 1,201
Re: 2010-08-07 Radio 1 Cream Ibiza @ Privilege, Ibiza, Spain
Quote:
Originally Posted by jose m View Post
wont happen.
its one of the tracks that the younger elements of the audience know (it was underworld last proper pop chart record) so for that reason alone its gonna stay imo.

saw this on facebook....i think these guys like tmo


pap!
__________________
UW0537
The truth, as ever, is subjective
  #80  
Old 09-03-2010, 04:50 AM
sy2004
river
 
Join Date: Jan 2006
Posts: 8
Re: 2010-08-07 Radio 1 Cream Ibiza @ Privilege, Ibiza, Spain
cue made for this, adjust timing as you like:

PERFORMER "Underworld"
TITLE "essential_mix_at_privilege_(ibiza)-dab-08-08-2010"
FILE "01-underworld-essential_mix_at_privilege_(ibiza)-dab-08-08-2010-1king.mp3" MP3
TRACK 01 AUDIO
TITLE "Downpipe"
PERFORMER "Underworld"
INDEX 01 00:00:00
TRACK 02 AUDIO
TITLE "Always Loved A Film"
PERFORMER "Underworld"
INDEX 01 08:00:00
TRACK 03 AUDIO
TITLE "Two Months Off"
PERFORMER "Underworld"
INDEX 01 14:21:
TRACK 04 AUDIO
TITLE "Scribble"
PERFORMER "Underworld"
INDEX 01 21:57:30
TRACK 05 AUDIO
TITLE "Rez/Cowgirl"
PERFORMER "Underworld"
INDEX 01 28:38:30
TRACK 06 AUDIO
TITLE "Between Stars"
PERFORMER "Underworld"
INDEX 01 38:59:00
TRACK 07 AUDIO
TITLE "King Of Snake"
PERFORMER "Underworld"
INDEX 01 45:14:00
TRACK 08 AUDIO
TITLE "Nuxx"
PERFORMER "Underworld"
INDEX 01 54:37:00
Post Reply

Thread Tools
Display Modes

Posting Rules
You may not post new threads
You may not post replies
You may not post attachments
You may not edit your posts

BB code is On
Smilies are On
[IMG] code is On
HTML code is Off

Forum Jump


All times are GMT -7. The time now is 02:47 PM.


Powered by vBulletin®
Copyright ©2000 - 2020, vBulletin Solutions, Inc.