View Single Post
  #3  
Old 09-24-2019, 04:36 PM
aphasein
ping!
 
Join Date: Dec 2007
Location: Orlando, FL
Posts: 15
Send a message via AIM to aphasein
Re: RiverRun Cue Files
Here's the text from the original cue file I have for it. Not sure of other versions, but this first one going around had Peach Tree and Peach Tree Beats separated:

FILE "I'm a Big Sister, and this is my Horse.mp3" MP3

TRACK 01 AUDIO
TITLE "Peach Tree"
PERFORMER "Underworld"
INDEX 01 00:00:00

TRACK 02 AUDIO
TITLE "Peach Tree Beats"
PERFORMER "Underworld"
INDEX 01 05:39:52

TRACK 03 AUDIO
TITLE "Mowed Path"
PERFORMER "Underworld"
INDEX 01 09:47:25

TRACK 04 AUDIO
TITLE "Showlder"
PERFORMER "Underworld"
INDEX 01 14:41:70

TRACK 05 AUDIO
TITLE "Wedge"
PERFORMER "Underworld"
INDEX 01 18:35:27

TRACK 06 AUDIO
TITLE "11 Hundred Hz"
PERFORMER "Underworld"
INDEX 01 28:12:44

Last edited by aphasein; 09-24-2019 at 04:40 PM.